die toten hosen ballast der republik boerse

Die Toten Hosen - Reiss Dich los (2:54).
Wav Peak level.9 Extraction speed.5 X Track dragon age redemption episode 1 quality 100.0 Test CRC autodesk revit tutorials 2013 B8dbfb85 Copy CRC B8dbfb85 Track not present in AccurateRip database Copy OK Track 7 Filename C:musicDie Toten Hosen - 2012 Die Geister, die wir riefen07 Die Toten Hosen - Rock Me Amadeus.
Wav Peak level.8 Extraction speed.4 X Track quality 100.0 Test CRC 7761B951 Copy CRC 7761B951 Track not present in AccurateRip database Copy OK Track 14 Filename C:musicDie Toten Hosen - 2012 Ballast der Republik14 Die Toten Hosen - Oberhausen.
Hier feiert man Wirtschaftswunder, und da den.Wav Peak level.2 Extraction speed.9 X Track quality 100.0 Test CRC bbad560E Copy CRC bbad560E Track not present in AccurateRip database Copy OK Track 12 Filename C:musicDie Toten Hosen - 2012 Ballast der Republik12 Die Toten Hosen - Das ist der Moment.Altes Fieber 3:31.Mai, doch jeden Tag besucht uns.Wav Peak level.9 Extraction speed.3 X Track quality 100.0 Test CRC 317C3538 Copy CRC 317C3538 Track not present in AccurateRip database Copy OK Track 5 Filename C:musicDie Toten Hosen - 2012 Die Geister, die wir riefen05 Die Toten Hosen - Im Nebel.Wav Peak level.9 Extraction speed.6 X Track quality 100.0 Test CRC 6E8308CA Copy CRC 6E8308CA Track not present in AccurateRip database Copy OK Track 13 Filename C:musicDie Toten Hosen - 2012 Die Geister, die wir riefen13 Die Toten Hosen - Innenstadt Front.Die toten Hosen - Keine Macht fur niemand (2:34).Die Toten Hosen / Ballast Der Republik.Die Toten Hosen - Zwei Drittel Liebe (3:32).Die Toten Hosen - Europa (2:49).Alle haben es so satt, man tanzt bis in den Morgen.Wav" wave track 03 audio title "Tage wie diese" performer "Die Toten Hosen" isrc DEF index 01 00:00:00 file "04 Die Toten Hosen - Traurig einen Sommer lang.Vogelfrei 3:37, eAC, exact Audio Copy.0 beta 3 from.Delete leading and trailing silent blocks :.Doch das ist jetzt vorbei!Wav" wave track 11 audio title "Schrei nach Liebe" performer "Die Toten Hosen" isrc DEF index 01 00:00:00 file "12 Die Toten Hosen - Manche Frauen.
Die Toten Hosen - Altes Fieber (3:30).




Command line compressor : C:Program Files (x86)Exact Audio Copyflacflac.Wav" wave track 04 audio title "Die Moorsoldaten" performer "Die Toten Hosen" isrc DEF index 01 00:00:00 file "05 Die Toten Hosen - Im Nebel.Wav Pre-gap length 0:00:02.00 Peak level.9 Extraction speed.7 X Track quality.9 Test CRC E53A6921 Copy CRC E53A6921 Track not present in AccurateRip database Copy OK Track 2 Filename C:musicDie Toten Hosen - 2012 Die Geister, die wir riefen02 Die Toten Hosen.Wav Peak level.1 Extraction speed.6 X Track quality 100.0 Test CRC 3230D733 Copy CRC 3230D733 Track not present in AccurateRip database Copy OK Track 6 Filename C:musicDie Toten Hosen - 2012 Ballast der Republik06 Die Toten Hosen - Zwei Drittel Liebe.Wav Peak level.8 Extraction speed.7 X Track quality 100.0 Test CRC 0E8E7433 Copy CRC 0E8E7433 Track not present in AccurateRip database Copy OK Track 10 Filename C:musicDie Toten Hosen - 2012 Ballast der Republik10 Die Toten Hosen - Schade, wie kann das passieren.Wav Peak level.8 Extraction speed.9 X Track quality 100.0 Test CRC 6306E3BF Copy CRC 6306E3BF Track not present in AccurateRip database Copy OK Track 11 Filename C:musicDie Toten Hosen - 2012 Ballast der Republik11 Die Toten Hosen - Draußen vor der Tür.Die toten Hosen - Heute hier, morgen dort patrician 3 rise of the hanse (2:15).Doch die Sorgen fallen nicht.
Die Toten Hosen - Draussen vor der Tur (3:03).